» » Larry Lee - Marooned
Larry Lee - Marooned Scarica Album
Rock / Funk / Blues / Pop
Interprete: Larry Lee
Titolo: Marooned
Stile: Pop Rock, Vocal, Classic Rock
Anno 1991
Paese Japan
Etichetta Sony Records
Numero di Catalogo SRCS 6135
Genere: Rock / Funk / Blues / Pop
Valutazione: 4.8
Voti: 377
Dimensione Mp3: 1186 mb
Dimensione Flac: 1882 mb
Dimensione Wma: 2133 mb
Registra da: CD, Album, Reissue

Larry Lee - Marooned Scarica Album

Tracklist

1Just Another Girlfriend
2Hollywood
3Marooned
4Waiting to Let Go
5Number One Girl
6Only Seventeen
7Satisfaction Guaranteed (I Could Give You Love)
8Don't Talk
9Best Is Yet to Come
10Hang On

Versioni

CategoryArtistTitle (Format)LabelCategoryCountryYear
FC 37692Larry Lee Marooned ‎(LP, Album)ColumbiaFC 37692US1982
COL 477944-2Larry Lee Marooned ‎(CD, Album)ColumbiaCOL 477944-2France1994
25AP 2320Larry Lee Marooned ‎(LP, Album)CBS/Sony25AP 2320Japan1982
20AP 2584Larry Lee Marooned ‎(LP, Album, RE)CBS/Sony20AP 2584Japan1983
SICP 30637Larry Lee Marooned ‎(CD, Album, RE, RM, Blu)Sony Records Int'lSICP 30637Japan2014

Codici a barre

  • Manufactured By – Sony Music Entertainment (Japan) Inc.

Video

Album

Marooned - Larry Lee. Лента с персональными рекомендациями и музыкальными новинками, радио, подборки на любой вкус, удобное управление своей коллекцией. To favorites 0 Download album. Listen album. Larry Lee. USARemastered 2016. Other albums by Larry Lee. Boys Town Gang, Tom Tom Club. Various Disco 83. Pop Disco. Kenny UK, Dickie Damron. Band Name Larry Lee. Album Name Marooned. Type Album. 发布日期 1982. 出版公司 CBS Records. Waiting to Let Go. Don't Talk. The Best Is Yet to Come. Number One Girl. Larry and Lee full album 1995 - Продолжительность: 1:00:46 Dusko Injac Recommended for Lee. Marooned, 1982. Waiting To Let Go, 04:25. Don't Talk, 03:19. Marooned, 05:02. Number One Girl, 03:34. Only Seventeen, 04:05. Listen free to Larry Lee Marooned Waiting To Let Go, Don't Talk and more. 10 tracks 38:36. Larry Lee - Vocals. Jon Goin - Guitar. Michael Baird - Drums. Richard Page - Vocals. Ike Stubblefield - Synthesizer. Larry Lee: Marooned - 1982 - ColumbiaSony Records FC 37692. Larry lee marooned. 14 results found. Filters : Items on sale Mint Sellers Professional sellers Private sellers. larry lee marooned -with original innersleeve-. Cbs holland 1982, cbs 85756. Larry Lee- Hang On- Marooned 3:52. LARRY LEE - The Best Is Yet To Come 3:04. Liste Aggiungi alla Lista. jan19 da GoldenYear

Reggy
foobar2000 1.3.17 / Dynamic Range Meter 1.1.1
log date: 2018-06-06 18:56:32

--------------------------------------------------------------------------------
Analyzed: Larry Lee / Marooned [1991 SRCS 6135 JP CD]
--------------------------------------------------------------------------------

DR Peak RMS Duration Track
--------------------------------------------------------------------------------
DR12 -0.16 dB -13.71 dB 4:25 01-Waiting To Let Go
DR12 -0.01 dB -13.76 dB 3:20 02-Don't Talk
DR12 0.00 dB -13.98 dB 5:02 03-Marooned
DR13 -0.56 dB -16.36 dB 3:07 04-The Best Is Yet To Come
DR12 0.00 dB -14.66 dB 3:35 05-Number One Girl
DR13 0.00 dB -14.84 dB 3:20 06-Satisfaction Guaranteed (I Could Give You Love)
DR12 0.00 dB -13.79 dB 4:05 07-Only Seventeen
DR13 -0.32 dB -15.64 dB 4:59 08-Hollywood
DR13 -0.43 dB -16.31 dB 3:16 09-Just Another Girlfriend
DR13 -0.64 dB -16.28 dB 3:50 10-Hang On
--------------------------------------------------------------------------------

Number of tracks: 10
Official DR value: DR13

Samplerate: 44100 Hz
Channels: 2
Bits per sample: 16
Bitrate: 1023 kbps
Codec: ALAC
================================================================================